The Hateful Eight 2015 4K UHD 2160p REMUX DCPRip DTS-HD 5.1

The Hateful Eight 2015 4K UHD 2160p REMUX DCPRip DTS-HD 5.1

The Hateful Eight 2015 4K UHD 2160p REMU …

The Hateful Eight 2015 4K UHD 2160p REMU …

Movies / Drama 4k

Producer:- Quentin Tarantino

Cast:-Samuel L. Jackson, Kurt Russell, Jennifer Jason, Walton Goggins , Demin Bichir, Tim Roth, Michael Madsen, Bruce Dern, James Parks, Dana Gourrier, Zo Bell, Lee Horsley, Gene Jones, Keith Jefferson, Craig Stark..

IMDB 7.80
File Size 38.1 GB

Film description

USA after the Civil War. The legendary bounty hunter John Ruth, nicknamed the Hangman, escorts the prisoner. On the way to them, several more travelers are beaten. The snow storm forces the company to seek shelter in the shop in the outskirts, where a very motley society has already settled down: a Confederate general, a Mexican, a cowboy … And one of them is not who he claims to be. 4K full movie download.

Info

Source : DCP Rip @ UHDClub
General
Format : Matroska
File size : 38.1 GiB
Duration : 2 h 40 min
Overall bit rate : 33.9 Mb/s

Video
Format : AVC
Format/Info : Advanced Video Codec
Format profile : High@L5.1
Format settings, CABAC : Yes
Format settings, ReFrames : 8 frames
Codec ID : V_MPEG4/ISO/AVC
Duration : 2 h 40 min
Bit rate : 30.3 Mb/s
Width : 3 840 pixels
Height : 1 396 pixels
Display aspect ratio : 2.751
Frame rate mode : Constant
Frame rate : 25.000 FPS
Color space : YUV
Chroma subsampling : 4:2:0
Bit depth : 8 bits
Scan type : Progressive
Bits/(Pixel*Frame) : 0.226
Stream size : 34.1 GiB (90%)
Title : The Hateful Eight (2015)
Language : English
Default : Yes
Forced : No

Audio
Format : DTS
Format/Info : Digital Theater Systems
Format profile : MA / Core
Mode : 16
Format settings, Endianness : Big
Codec ID : A_DTS
Duration : 2 h 40 min
Bit rate mode : Variable / Constant
Bit rate : 3 550 kb/s / 1 509 kb/s
Channel(s) : 6 channels
Channel positions : Front: L C R, Side: L R, LFE
Sampling rate : 48.0 kHz
Frame rate : 93.750 FPS (512 spf)
Bit depth : 24 bits
Compression mode : Lossless / Lossy
Stream size : 3.99 GiB (10%)
Title : DTS-HD MA 5.1 - Blu-ray
Language : English
Default : No
Forced : No
Chapters : YES



Screenshots of the movie:

  • 1489250402 1
  • 1489250416 2
  • 1489250413 3


File size :- 38.1 GB

Watch the movie trailer The Hateful Eight 2015 4K UHD 2160p REMU …

Looper 4K 2012
IMDB  7.4
Size  74.01 GB
Nobody 4K 2021

Nobody 4K 2021

Thrillers 4K / Drama 4k

On that ill-fated day when President Kennedy was assassinated in Dallas, Frank Horrigan was among the guards. Memories of an unfulfilled mission have kept him awake for years. 30 years […]

IMDB  7.4
Size  42.76 GB
The Big Ugly 4K 2020

The Big Ugly 4K 2020

Thrillers 4K / Drama 4k

Neiln has always been a loyal aide to London-based crime boss Harris, caring for the problems and people that are getting in the way of his illegal business. When Harris […]

IMDB  5.0
Size  53.67 GB