Risen 2016 2160p 4K UltraHD BluRay HEVC 10bit DTS-HD 5.1 [ENG]

Risen 2016 2160p 4K UltraHD BluRay HEVC 10bit DTS-HD 5.1 [ENG]

Risen 2016 2160p 4K UltraHD BluRay HEVC  …

Risen 2016 2160p 4K UltraHD BluRay HEVC …

Movies / Drama 4k

Producer:- Kevin Reynolds

Cast:-Joseph Fiennes, Tom Felton, Peter Firth, Cliff Curtis, Maria Botto, Luis Callejo, Antonio Gil, Richard Atwill, Stewart Scudamore, Andy Gathergood, Stephen Hagan, Mish Boyko, Joan Cornet, Joe Manjn, Pepe Lorente, Stavros Demetraki, Selva Rasalingam, Manu Fullola, Mario Tardon, Stephen Greif...

IMDB 6.30
File Size  39.51 GB

Film description

33 year no. E. The Roman tribune in Judea was given the task of finding the missing body of a Jew who had been crucified the day before, who, according to rumors, had risen.

After crushing a Zealot revolt led by Barabbas, Clavius, a Roman Tribune, is appointed by Pontius Pilate to investigate the rumors of a risen Jewish Messiah. Pilate orders him to locate the missing body of Yeshua. In doing so, Pilate seeks to quell an imminent uprising in Jerusalem during the first 40 days following Christ’s crucifixion.[4] Failing to secure Yeshua’s body, Clavius attempts to locate his disciples for clues to his disappearance.

During a raid through a Jewish enclave, Clavius unexpectedly discovers a seemingly resurrected Yeshua with his apostles in a solitary abode. Clavius calls off the search; he disperses his troops without revealing to them his personal encounter with the risen Yeshua. Having abandoned Roman polytheism and the god Mars, Clavius later joins Yeshua and his followers on a journey to determine the validity of his mortal rejuvenation.

Pilate deduces that Clavius has apparently betrayed him, and dispatches a contingent of Roman troops to pursue him and Yeshua. Clavius assists the disciples in evading the Roman search party; he consequently witnesses the healing of a leper, and then the ascension of Yeshua into Heaven. Later, communicating his travels to a stranger in a remote dwelling, Clavius acknowledges the vivifying wisdom which he observed through Yeshua, feeling he will never be the same. Download movie in 4k ULTRA HD
Info :-

English DTSHD-MA 5.1 Audio
English French Subs

Source : 4K UHD BluRay
Format : Matroska
File size : 39.3 GiB
Duration : 1 h 47 min
Overall bit rate : 52.3 Mb/s

Video
Format : HEVC
Format profile : Main 10@L5@Main
Bit rate : 50.2 Mb/s
Width : 3 840 pixels
Height : 2 160 pixels
Display aspect ratio : 16:9
Frame rate : 23.976 (24000/1001) FPS
Bit depth : 10 bits
Stream size : 37.7 GiB (96%)
Color primaries : BT.709

Audio #1
Format : DTS MA / Core
Bit rate : 2 148 kb/s / 1 509 kb/s
Channel(s) : 6 channels
Stream size : 1.61 GiB (4%)
Language : English

Chapters : YES

Screensort of movies


File size :- 39.51 GB

Watch the movie trailer Risen 2016 2160p 4K UltraHD BluRay HEVC …

D-Day Normandy 1944 4K 2014 DOCU

D-Day Normandy 1944 4K 2014 DOCU

Drama 4k / Action 4k

On June 6, 1944, the largest military invasion (as well as confrontation) the world had ever seen began. Day D” tells an epic story about the preparation and implementation of […]

IMDB  7.6
Size  18.47 GB
First Reformed 4K 2017

First Reformed 4K 2017

Thrillers 4K / Drama 4k

Ernst Toller is the pastor of the First Reformed Church in Snowbridge, New York, who is struggling through a crisis of faith. The film opens with him writing down his […]

IMDB  7.1
Size  11.84 GB
Last Flag Flying 4K 2017

Last Flag Flying 4K 2017

Drama 4k / Comedy 4K

In 2003, Larry “Doc” Shepherd visits the bar of Sal Nealon, a former Marine that he served with in Vietnam. Sal willingly joins Doc on an impromptu drive where Doc […]

IMDB  6.8
Size  13.34 GB