Jack Reacher Never Go Back (2016) Multi 4K UHD 2160p HEVC 10 Bits ATMOS 7.1

Jack Reacher Never Go Back (2016) Multi 4K UHD 2160p HEVC 10 Bits ATMOS 7.1

Jack Reacher Never Go Back (2016) Multi  …

Jack Reacher Never Go Back (2016) Multi …

Movies / Thrillers 4K

Producer:- Edward Zwick

Cast:-Tom Cruise, Cobie Smulders, Aldis Hodge, Danika Yarosh, Patrick Heusinger, Holt McCallany, Robert Knepper, Judd Lormand, Christopher Berry, Hunter Burke, Jason Douglas, Lizeth Hutchings, Marisela Zumbado, Alexandra Lucchesi, Madalyn Horcher..

IMDB 6.10
File Size 49.52 GB

Film description

Ex-military Jack Reacher comes to Washington to meet for the first time with Major Susan Turner, who led his former unit and more than once rescued him in difficult situations. By a strange coincidence, on the eve of his visit, the major is arrested on charges of treason … Reacher, confident of Susan’s innocence, is to release her and uncover the plot, the threads of which stretch to the very top. In an effort to get to the truth, he also makes a startling discovery, capable of changing his life once and for all …

2160p 4K UltraHD BluRay Rip
HEVC 10 Bits BT709

English Dolby ATMOS 7.1 Audio
French DDS 5.1 Audio

English & French Subs


Source : 4K UHD BluRay
Format : Matroska
File size : 49.5 GiB
Duration : 1 h 58 min
Overall bit rate mode : Variable
Overall bit rate : 60.0 Mb/s

Video
Format : HEVC
Format profile : Main 10@L5@Main
Bit rate : 54.3 Mb/s
Width : 3 840 pixels
Height : 2 160 pixels
Display aspect ratio : 16:9
Frame rate : 23.976 (24000/1001) FPS
Bit depth : 10 bits
Stream size : 44.8 GiB (90%)
Color primaries : BT.709

Audio #1
Format : Atmos / TrueHD 7.1
Bit rate : 4 326 kb/s / 7 758 kb/s
Channel(s) : 8 channels
Bit depth : 24 bits
Stream size : 3.57 GiB (7%)
Language : English

Audio #2
Format : AC-3
Bit rate : 640 kb/s
Channel(s) : 6 channels
Stream size : 541 MiB (1%)
Language : French

Chapters : YES
Screenshots of the movie:

File size :- 49.52 GB

Watch the movie trailer Jack Reacher Never Go Back (2016) Multi …

he Last Days of American Crime 4K 2020

he Last Days of American Crime 4K 2020

Thrillers 4K / Action 4k

Graham Bricke is torturing a man looking for his money. The man tells him that the Dumois family is never going to stop hunting him. He tells Graham that his […]

IMDB  3.6
Size  19.25 GB
First Reformed 4K 2017

First Reformed 4K 2017

Thrillers 4K / Drama 4k

Ernst Toller is the pastor of the First Reformed Church in Snowbridge, New York, who is struggling through a crisis of faith. The film opens with him writing down his […]

IMDB  7.1
Size  11.84 GB
Flight 4K 2012

Flight 4K 2012

Thrillers 4K / Drama 4k

Airline pilot Captain Whip Whitaker uses cocaine to wake up after a sleepless night in his Orlando hotel room. He pilots SouthJet Flight 227 to Atlanta, which experiences severe turbulence […]

IMDB  7.3
Size  12.88 GB