Jack Reacher Never Go Back (2016) Multi 4K UHD 2160p HEVC 10 Bits ATMOS 7.1

Jack Reacher Never Go Back (2016) Multi 4K UHD 2160p HEVC 10 Bits ATMOS 7.1

Jack Reacher Never Go Back (2016) Multi  …

Jack Reacher Never Go Back (2016) Multi …

Movies / Thrillers 4K

Producer:- Edward Zwick

Cast:-Tom Cruise, Cobie Smulders, Aldis Hodge, Danika Yarosh, Patrick Heusinger, Holt McCallany, Robert Knepper, Judd Lormand, Christopher Berry, Hunter Burke, Jason Douglas, Lizeth Hutchings, Marisela Zumbado, Alexandra Lucchesi, Madalyn Horcher..

IMDB 6.10
File Size 49.52 GB

Film description

Ex-military Jack Reacher comes to Washington to meet for the first time with Major Susan Turner, who led his former unit and more than once rescued him in difficult situations. By a strange coincidence, on the eve of his visit, the major is arrested on charges of treason … Reacher, confident of Susan’s innocence, is to release her and uncover the plot, the threads of which stretch to the very top. In an effort to get to the truth, he also makes a startling discovery, capable of changing his life once and for all …

2160p 4K UltraHD BluRay Rip
HEVC 10 Bits BT709

English Dolby ATMOS 7.1 Audio
French DDS 5.1 Audio

English & French Subs


Source : 4K UHD BluRay
Format : Matroska
File size : 49.5 GiB
Duration : 1 h 58 min
Overall bit rate mode : Variable
Overall bit rate : 60.0 Mb/s

Video
Format : HEVC
Format profile : Main 10@L5@Main
Bit rate : 54.3 Mb/s
Width : 3 840 pixels
Height : 2 160 pixels
Display aspect ratio : 16:9
Frame rate : 23.976 (24000/1001) FPS
Bit depth : 10 bits
Stream size : 44.8 GiB (90%)
Color primaries : BT.709

Audio #1
Format : Atmos / TrueHD 7.1
Bit rate : 4 326 kb/s / 7 758 kb/s
Channel(s) : 8 channels
Bit depth : 24 bits
Stream size : 3.57 GiB (7%)
Language : English

Audio #2
Format : AC-3
Bit rate : 640 kb/s
Channel(s) : 6 channels
Stream size : 541 MiB (1%)
Language : French

Chapters : YES
Screenshots of the movie:

File size :- 49.52 GB

Watch the movie trailer Jack Reacher Never Go Back (2016) Multi …

Gemini Man 4K 2019 Ultra HD 2160p

Gemini Man 4K 2019 Ultra HD 2160p

Thrillers 4K /

First-class killer Henry Brogan becomes the target of a mysterious operative who seems to know his every move ahead. 4k movies reviews General impression: “Gemini” is the work of Ang […]

IMDB  5.7
Size  79.62 GB
Terminator Salvation 4K 2009 Ultra HD 21 …

Terminator Salvation 4K 2009 Ultra HD 21 …

Thrillers 4K / Adventure 4K

2018 year. In the world there was a war with cars. John Connor is a man whose fate is to lead the Resistance to the electronic brain of Skynet and […]

IMDB  6.5
Size  49.40 GB
Darlin 4K 2019 Ultra HD 2160p

Darlin 4K 2019 Ultra HD 2160p

Thrillers 4K / Horror 4K

A wild woman sends her ward, the same wild girl, to people in the hospital. She at first is afraid of everything, but soon relaxes and begins to trust others. […]

IMDB  4.9
Size  41.45 GB