Fantastic 4 (2015) 4K 2160p Ultra HD Blu-Ray

Fantastic 4 (2015) 4K 2160p Ultra HD Blu-Ray

Fantastic 4 (2015) 4K 2160p Ultra HD Blu …

Fantastic 4 (2015) 4K 2160p Ultra HD Blu …

Movies / Adventure 4K

Producer:- Josh Trank

Cast:-Miles Teller, Michael B. Jordan, Kate Mara, Jamie Bell, Toby Kebbell, Reg E. Cathey, Tim Blake Nelson, Joshua Montes, Dan Castellaneta, Owen Judge, Kylen Davis, Evan Hannemann, Chet Hanks, Mary-Pat Green, Tim Heidecker..

IMDB 4.30
File Size 45.9 GB

Film description

An explosive adventure about a quartet of flawed, ordinary human beings who suddenly find themselves with extraordinary abilities. After exposure to cosmic radiation, four astronauts become the most remarkable, if dysfunctional, superheroes of all time. Unfortunately, the mission’s sponsor has also been transformed into the world’s most lethal supervillain setting the stage for a confrontation of epic proportions.

Info File: Fantastic_Four_2015_2160p_4K_UHD_BluRay_HEVC10_Multi_DTSHD_5.1.mkv

English DTSHD-MA 5.1 Audio
French DTS 5.1 Audio
English, French Subs

SPECS
Source : 4K UHD BluRay
Format : Matroska
File size : 45.9 GiB
Duration : 1 h 40 min
Overall bit rate : 65.6 Mb/s

Video
Format : HEVC
Format profile : Main 10@L5@Main
Bit rate : 60.0 Mb/s
Width : 3 840 pixels
Height : 2 160 pixels
Display aspect ratio : 16:9
Frame rate : 23.976 (24000/1001) FPS
Bit depth : 10 bits
Stream size : 41.9 GiB (91%)
Color primaries : BT.709

Audio #1
Format : DTS MA / Core
Bit rate : 4 937 kb/s / 1 509 kb/s / 1 509 kb/s
Channel(s) : 8 channels
Stream size : 3.45 GiB (8%)
Language : English

Audio #2
Format : DTS
Bit rate : 768 kb/s
Channel(s) : 6 channels
Stream size : 549 MiB (1%)
Language : French

Chapters : YES

Info File: Fantastic.Four.2015.2160p.BluRay.REMUX.HEVC.DTS-HD.MA.7.1.mkv

Video
Codec: HEVC / H.265
Resolution: 4K (2160p)
HDR: HDR10
Aspect ratio: 2.39:1
Original aspect ratio: 2.39:1

Audio
English: DTS-HD Master Audio 7.1 (48kHz, 24-bit)
Spanish: Dolby Digital 5.1 (640 kbps)
French: DTS 5.1

Subtitles
English SDH, Spanish

2017.12.12 – added REMUX movie Fantastic 4 (2015) HDR10

Screenshots of the movie:


File size :- 45.9 GB

Watch the movie trailer Fantastic 4 (2015) 4K 2160p Ultra HD Blu …

War of the Worlds 4K 2005

War of the Worlds 4K 2005

Thrillers 4K / Adventure 4K

Taken from IMDB.COM No one would have believed at the beginning of the 21st century that everything developed on Earth is vigilantly and closely watched by beings more developed than […]

IMDB  6.5
Size  62.41 GB
The Mask of Zorro 4K 1998

The Mask of Zorro 4K 1998

Adventure 4K / Comedy 4K

An aging hero who devoted all his strength to the struggle for justice, spent decades in prison, lost his wife and daughter, passes on his knowledge, skills and black mask […]

IMDB  6.7
Size  75.83 GB
Sonic the Hedgehog 4K 2020

Sonic the Hedgehog 4K 2020

Adventure 4K /

Taken from IMDB.COM A detached bright blue hedgehog Sonic from a parallel world, together with a newfound best friend, a man named Tom, gets acquainted with the difficulties of life […]

IMDB  6.6
Size  59.49 GB