Central Intelligence 2016 UNRATED 2160p 4K UHD BluRay HEVC 10bit DTS-HD 5.1

Central Intelligence 2016 UNRATED 2160p 4K UHD BluRay HEVC 10bit DTS-HD 5.1

Central Intelligence 2016 UNRATED 2160p  …

Central Intelligence 2016 UNRATED 2160p …

Movies / Comedy 4K

Producer:- Rawson Marshall Thurber

Cast:-Dwayne Johnson, Kevin Hart, Amy RyanAmy, Danielle Nicolet, Jason Bateman, Aaron Paul, Ryan Hansen, Tim Griffin, Timothy John, Sione Kelepi, Dylan Boyack, Thomas Kretschmann, Megan Park, Slaine, Annie Kerins...

IMDB  6.30
File Size 52.35 GB

Film description

From husk in social network to saving the world – one step. Today you are a friend of a former classmate, and tomorrow – he drags you under bullets. Who knew that an avid donut lover would turn into a super-spy like a rock.

A film that people are changing. A school loser can turn into a steep pepper, and a tough guy from a football team can become an ordinary clerk. No matter who, you were at school and what people thought about you. You can change your name, move to another city, plow like a horse and succeed. And you can stay and think that since you are a school star, you are now automatically provided with vital benefits. Nobody cares. Because the adult life puts everything in its place. As in this film.

2160p 4K UltraHD BluRay Rip
HEVC 10 Bits BT709

English DTSHD-MA 5.1 Audio

French Subs



Source : 4K UHD BluRay
Format : Matroska
File size : 52.4 GiB
Duration : 1 h 56 min
Overall bit rate : 64.4 Mb/s

Video
Format : HEVC
Format profile : Main 10@L5@Main
Bit rate : 60.7 Mb/s
Width : 3 840 pixels
Height : 2 160 pixels
Display aspect ratio : 16:9
Frame rate : 23.976 (24000/1001) FPS
Bit depth : 10 bits
Stream size : 49.3 GiB (94%)
Color primaries : BT.709

Audio #1
Format : DTS MA / Core
Bit rate : 3 694 kb/s / 1 509 kb/s
Channel(s) : 6 channels
Stream size : 3.00 GiB (6%)
Language : English

Chapters : YES


CENTRAL.INTELLIGENCE.2016.UNRATED.2160P.BLURAY.REMUX.HEVC.DTS-HD.MA.5.1.MKV


File size :- 52.35 GB

Watch the movie trailer Central Intelligence 2016 UNRATED 2160p …

Knives Out 4K 2019 Ultra HD 2160p

Knives Out 4K 2019 Ultra HD 2160p

Drama 4k / Comedy 4K

On his 85th birthday, acclaimed crime novelist Harlan Thrombey (Christopher Plummer) is found dead in his room with his throat slit. Just as authorities are about to dismiss the tragedy […]

IMDB  8.0
Size  58.53GB
Hustlers 4K 2019 Ultra HD 2160p

Hustlers 4K 2019 Ultra HD 2160p

Comedy 4K /

Dancers of an elite strip club, whose clients are well-known financiers from Wall Street, are accustomed to big money and a luxurious life. But after the financial crisis of 2008, […]

IMDB  6.5
Size  58.67 GB
Once Upon a Time in Hollywood 4K 2019 Ul …

Once Upon a Time in Hollywood 4K 2019 Ul …

Drama 4k / Comedy 4K

The film tells about a series of events that took place in Hollywood in 1969, at the sunset of his “golden age”. Famous actor Rick Dalton and his understudy Cliff […]

IMDB  7.9
Size  75.23 GB