Central Intelligence 2016 UNRATED 2160p 4K UHD BluRay HEVC 10bit DTS-HD 5.1

Central Intelligence 2016 UNRATED 2160p 4K UHD BluRay HEVC 10bit DTS-HD 5.1

Central Intelligence 2016 UNRATED 2160p  …

Central Intelligence 2016 UNRATED 2160p …

Movies / Comedy 4K

Producer:- Rawson Marshall Thurber

Cast:-Dwayne Johnson, Kevin Hart, Amy RyanAmy, Danielle Nicolet, Jason Bateman, Aaron Paul, Ryan Hansen, Tim Griffin, Timothy John, Sione Kelepi, Dylan Boyack, Thomas Kretschmann, Megan Park, Slaine, Annie Kerins...

IMDB  6.30
File Size 52.35 GB

Film description

From husk in social network to saving the world – one step. Today you are a friend of a former classmate, and tomorrow – he drags you under bullets. Who knew that an avid donut lover would turn into a super-spy like a rock.

A film that people are changing. A school loser can turn into a steep pepper, and a tough guy from a football team can become an ordinary clerk. No matter who, you were at school and what people thought about you. You can change your name, move to another city, plow like a horse and succeed. And you can stay and think that since you are a school star, you are now automatically provided with vital benefits. Nobody cares. Because the adult life puts everything in its place. As in this film.

2160p 4K UltraHD BluRay Rip
HEVC 10 Bits BT709

English DTSHD-MA 5.1 Audio

French Subs



Source : 4K UHD BluRay
Format : Matroska
File size : 52.4 GiB
Duration : 1 h 56 min
Overall bit rate : 64.4 Mb/s

Video
Format : HEVC
Format profile : Main 10@L5@Main
Bit rate : 60.7 Mb/s
Width : 3 840 pixels
Height : 2 160 pixels
Display aspect ratio : 16:9
Frame rate : 23.976 (24000/1001) FPS
Bit depth : 10 bits
Stream size : 49.3 GiB (94%)
Color primaries : BT.709

Audio #1
Format : DTS MA / Core
Bit rate : 3 694 kb/s / 1 509 kb/s
Channel(s) : 6 channels
Stream size : 3.00 GiB (6%)
Language : English

Chapters : YES


CENTRAL.INTELLIGENCE.2016.UNRATED.2160P.BLURAY.REMUX.HEVC.DTS-HD.MA.5.1.MKV


File size :- 52.35 GB

Watch the movie trailer Central Intelligence 2016 UNRATED 2160p …

Red Heat 4K 1988 Ultra HD 2160p

Red Heat 4K 1988 Ultra HD 2160p

Comedy 4K /

In pre-perestroika times, drug trafficking was an outrageous crime. To fight with the Georgian mafiosi, who is using all the connections of the United States, trying to add Soviet citizens […]

IMDB  6.1
Size  54.96 GB
Shaft 4K 2019 Ultra HD 2160p

Shaft 4K 2019 Ultra HD 2160p

Comedy 4K /

John Schaft III is a cyber security specialist at the FBI who is not used to brute force problems. He prefers to rely on logic and calculation, but killing his […]

IMDB  6.4
Size  51.55 GB
Stuber 4K 2019 Ultra HD 2160p

Stuber 4K 2019 Ultra HD 2160p

Comedy 4K /

A humble Uber driver named Stu picks up a passenger who turns out to be a policeman following the trail of a brutal killer. The taxi driver could not even […]

IMDB  6.2
Size  52.45 GB