Central Intelligence 2016 UNRATED 2160p 4K UHD BluRay HEVC 10bit DTS-HD 5.1

Central Intelligence 2016 UNRATED 2160p 4K UHD BluRay HEVC 10bit DTS-HD 5.1

Central Intelligence 2016 UNRATED 2160p  …

Central Intelligence 2016 UNRATED 2160p …

Movies / Comedy 4K

Producer:- Rawson Marshall Thurber

Cast:-Dwayne Johnson, Kevin Hart, Amy RyanAmy, Danielle Nicolet, Jason Bateman, Aaron Paul, Ryan Hansen, Tim Griffin, Timothy John, Sione Kelepi, Dylan Boyack, Thomas Kretschmann, Megan Park, Slaine, Annie Kerins...

IMDB  6.30
File Size 52.35 GB

Film description

From husk in social network to saving the world – one step. Today you are a friend of a former classmate, and tomorrow – he drags you under bullets. Who knew that an avid donut lover would turn into a super-spy like a rock.

A film that people are changing. A school loser can turn into a steep pepper, and a tough guy from a football team can become an ordinary clerk. No matter who, you were at school and what people thought about you. You can change your name, move to another city, plow like a horse and succeed. And you can stay and think that since you are a school star, you are now automatically provided with vital benefits. Nobody cares. Because the adult life puts everything in its place. As in this film.

2160p 4K UltraHD BluRay Rip
HEVC 10 Bits BT709

English DTSHD-MA 5.1 Audio

French Subs



Source : 4K UHD BluRay
Format : Matroska
File size : 52.4 GiB
Duration : 1 h 56 min
Overall bit rate : 64.4 Mb/s

Video
Format : HEVC
Format profile : Main 10@L5@Main
Bit rate : 60.7 Mb/s
Width : 3 840 pixels
Height : 2 160 pixels
Display aspect ratio : 16:9
Frame rate : 23.976 (24000/1001) FPS
Bit depth : 10 bits
Stream size : 49.3 GiB (94%)
Color primaries : BT.709

Audio #1
Format : DTS MA / Core
Bit rate : 3 694 kb/s / 1 509 kb/s
Channel(s) : 6 channels
Stream size : 3.00 GiB (6%)
Language : English

Chapters : YES


CENTRAL.INTELLIGENCE.2016.UNRATED.2160P.BLURAY.REMUX.HEVC.DTS-HD.MA.5.1.MKV


File size :- 52.35 GB

Watch the movie trailer Central Intelligence 2016 UNRATED 2160p …

Last Flag Flying 4K 2017

Last Flag Flying 4K 2017

Drama 4k / Comedy 4K

In 2003, Larry “Doc” Shepherd visits the bar of Sal Nealon, a former Marine that he served with in Vietnam. Sal willingly joins Doc on an impromptu drive where Doc […]

IMDB  6.8
Size  13.34 GB
The Mask of Zorro 4K 1998

The Mask of Zorro 4K 1998

Adventure 4K / Comedy 4K

An aging hero who devoted all his strength to the struggle for justice, spent decades in prison, lost his wife and daughter, passes on his knowledge, skills and black mask […]

IMDB  6.7
Size  75.83 GB
Brittany Runs a Marathon 4K 2019

Brittany Runs a Marathon 4K 2019

Drama 4k / Comedy 4K

She was the funniest person I’d ever met,” Colaizzo said in a recent interview. The timing of the move-in was also fortuitous: By the time they started living together, O’Neill […]

IMDB  6.8
Size  11.19 GB